#TITLE:250BPM;
#SUBTITLE:;
#ARTIST:AKIRA YAMAOKA;
#TITLETRANSLIT:;
#SUBTITLETRANSLIT:;
#ARTISTTRANSLIT:;
#CREDIT:;
#BANNER:banner.JPG;
#BACKGROUND:backround.jpg;
#LYRICSPATH:;
#CDTITLE:title.png;
#MUSIC:250bpm.mp3;
#OFFSET:-0.315;
#SAMPLESTART:23.000;
#SAMPLELENGTH:12.000;
#SELECTABLE:YES;
#BPMS:0.000=250.120,112.000=125.059,140.000=250.120;
#STOPS:;
#BGCHANGES:;
// cache tags:
#FIRSTBEAT:0.000;
#LASTBEAT:317.500;
#SONGFILENAME:Songs/Music V.I.P ^_^/250bpm- Panemonium5/250bpm.sm;
#HASMUSIC:1;
#HASBANNER:1;
#MUSICLENGTH:85.975;
// end cache tags

//---------------dance-solo - Copied from----------------
#NOTES:
     dance-solo:
     Copied from:
     Challenge:
     14:
     1.000,1.000,1.000,0.000,1.000,740.000,151.000,0.000,0.000,0.000:
001100
001100
110000
110000
011000
000000
010100
001000
,
110000
110000
011000
010100
100100
000000
011000
010000
,
010100
110000
101000
110000
101000
000100
000000
100000
,
000000
010000
011000
000100
011000
010000
011000
000000
,
110000
001000
000100
010000
001000
010000
000100
100000
,
001000
010000
000100
100000
010000
100000
001000
010000
,
010100
000100
100000
010000
100000
000100
001000
010000
,
000100
100000
010000
001000
000100
001000
010000
100000
,
100100
010000
000100
100000
010000
100000
000100
001000
,
010000
001000
000100
100000
010000
000100
010000
001000
,
001100
100000
010000
100000
110000
000100
001000
000100
,
011000
100000
010000
001000
010100
010000
000100
100000
,
110000
000000
000000
010100
000000
000000
110000
000000
,
000000
100000
100000
100000
,
110000
000000
000000
010100
000000
000000
110000
000000
,
100000
000000
000000
000000
000100
010000
001000
000000
100000
010000
000100
000000
100000
010000
001000
000000
,
000100
000000
010100
101000
110000
010100
110000
001100
,
010100
000000
000000
000000
100000
010000
001000
000100
010000
000000
000000
000000
000100
010000
001000
100000
,
010100
000100
000100
000100
110000
100000
100000
100000
,
001100
001000
001000
001000
110000
010000
010000
010000
,
110000
100000
010100
000100
110000
001100
010100
001100
,
100100
011000
010100
101000
100000
010000
001000
000100
,
110000
100100
010100
011000
001100
110000
010100
011000
,
010100
110000
011000
100100
001000
000100
100000
010000
,
100100
100000
000100
100000
110000
110000
110000
110000
,
100100
000100
100000
000100
010100
010100
010100
010100
,
001000
100000
010000
001000
100000
000100
010000
001000
,
000100
100000
010000
001000
010000
000100
100000
001000
,
010100
100000
010000
001000
100100
010000
100000
000100
010100
001000
100000
010000
101000
100000
000100
001000
,
011000
010000
001000
010000
110000
110000
110000
110000
,
100000
010000
000100
100000
001000
010000
000100
001000
100000
010000
100000
001000
100000
000100
001000
010000
,
100100
000000
000000
000000
110000
000000
000000
000000
010100
000000
000000
000000
110000
000000
000000
010000
,
001000
000100
100000
001000
010000
000100
100000
000100
,
100000
010000
001000
000100
010000
001000
010000
000100
001000
010000
001000
000100
100000
001000
010000
000100
010000
001000
100000
000100
100000
000100
100000
010000
100000
001000
010000
001000
010000
000100
001000
010000
,
101000
100000
110000
100000
001100
000100
010100
000100
,
100100
001000
010000
000100
,
100000
000000
100000
010000
,
011000
001000
100000
000100
,
110000
000100
000100
100000
,
110000
001100
010100
110000
001100
011000
100100
011000
,
110000
010100
101000
101000
010100
100100
011000
011000
,
010100
101000
001100
110000
110000
001100
010100
011000
,
101000
110000
101000
011000
010100
001100
101000
011000
,
100000
010000
000100
010000
001000
000100
100000
001000
,
010000
000100
001000
010000
001000
000100
100000
001000
,
010000
100000
000100
100000
001000
010000
100000
000100
,
001000
000100
100000
000100
000000
001000
010000
000100
,
110000
100000
101000
000000
000000
010100
000100
100100
,
000000
000000
101000
001000
001000
010100
000100
100100
,
100100
000000
101000
000000
000000
010100
000000
100100
,
000000
000000
110000
010000
101000
101000
000000
100100
,
100100
000000
100100
000000
000000
110000
100000
101000
,
000000
000000
010100
000000
001000
001100
000000
001000
,
101000
100000
010100
000000
010000
100000
000100
100000
,
010000
010000
010000
010000
,
100000
000100
010000
000100
010000
001000
100000
000100
,
001000
010000
100000
000100
010000
000100
100000
001000
,
010000
000100
100000
001000
100000
010000
001000
100000
,
000100
010000
001000
000100
001000
100000
010000
001000
,
010000
100000
010000
100000
001000
010000
001000
010000
,
000100
001000
000100
001000
100000
000100
010000
001000
,
100000
000100
010000
001000
010000
001000
100000
010000
,
001000
100000
000100
010000
000100
001000
100000
010000
,
100000
010000
001000
000100
001000
010000
100000
001000
010000
001000
100000
001000
100000
010000
001000
000100
,
010000
000100
010000
000100
001000
010000
100000
000100
010000
001000
010000
000100
001000
010000
001000
010000
,
100000
000100
100000
001000
010000
001000
100000
000100
100000
010000
001000
010000
100000
001000
010000
000100
,
001000
010000
001000
000100
010000
001000
100000
000100
100000
001000
010000
000100
001000
000100
100000
010000
,
001000
000100
100000
010000
001000
000100
001000
010000
100000
001000
010000
000100
001000
010000
100000
000100
,
100000
010000
001000
000100
001000
010000
100000
001000
010000
001000
100000
001000
100000
010000
001000
000100
,
010000
000100
010000
000100
001000
010000
100000
000100
010000
001000
010000
000100
001000
010000
001000
010000
,
100000
000100
100000
001000
010000
001000
100000
000100
100000
010000
001000
010000
100000
001000
010000
000100
,
001000
010000
001000
000100
010000
001000
100000
000100
100000
001000
010000
000100
001000
000100
100000
010000
,
001000
000100
100000
010000
001000
000100
001000
010000
100000
001000
010000
000100
001000
010000
100000
000100
,
100000
010000
001000
000100
010000
000100
100000
000100
100000
000100
100000
001000
010000
001000
010000
000100
,
100000
001000
010000
001000
100000
001000
010000
000100
010000
000100
100000
000100
010000
000100
001000
010000
,
100000
010000
100000
000100
001000
010000
001000
000100
010000
001000
010000
000100
001000
010000
100000
000100
,
100000
010000
100000
001000
010000
001000
010000
000100
001000
000100
001000
010000
100000
010000
100000
001000
,
010000
000100
001000
000100
100000
010000
100000
001000
100000
000100
010000
000100
001000
010000
100000
000100
,
010000
000100
001000
010000
001000
000100
010000
001000
100000
010000
100000
001000
010000
000100
100000
001000
,
010000
000000
000000
000000
;

//---------------dance-single - ----------------
#NOTES:
     dance-single:
     :
     Challenge:
     13:
     1.000,1.000,0.407,0.535,1.000,678.000,35.000,46.000,10.000,44.000:
0000
0000
0000
0000
0000
0000
1100
1001
,
0000
0000
0000
0000
,
0000
0000
0000
0000
,
0011
1001
0000
0000
0000
0000
0000
0000
,
0001
0001
0001
0001
,
0001
0001
0001
0001
,
0001
0000
0001
0010
0001
0100
1000
0010
,
0100
0001
1000
0010
0100
0001
0010
1000
,
0100
0001
0220
2330
3022
0033
1000
1000
,
0010
0100
0001
1000
0100
1000
0010
0001
,
0100
0010
0001
0010
1000
0100
0010
1000
,
0001
0010
0001
0010
0001
0010
0001
0100
,
0010
0002
0000
0010
0000
0020
0000
0000
,
0000
0003
0000
0000
,
0030
1000
0000
1000
0000
1000
0000
0000
,
0000
0000
1000
0010
1000
0010
1000
0010
0000
0000
0000
0000
1000
0000
0000
0000
,
0100
0010
0001
0010
,
0100
0000
0000
0000
1000
0100
1000
0000
0000
0000
0000
0000
1000
0100
1000
0000
,
0102
0000
0003
2100
0000
0000
3000
0000
,
0210
0000
0000
0300
0000
1002
0000
0000
,
0000
0000
0000
0003
0000
0000
1000
0000
0000
0000
2200
0000
0000
0000
3320
0000
0000
0000
0032
0000
0000
0000
0003
0000
,
0000
0001
0010
0100
,
0001
0000
2100
0002
3023
0030
1000
0000
,
0010
0100
0001
1000
,
0010
0200
0000
0000
,
0000
0000
0000
0000
,
2300
0000
0000
0020
3000
0000
0030
0200
,
0000
0000
0002
0300
0000
0000
0000
0000
,
0003
0000
0000
1100
0000
0000
0110
0000
0000
0011
0000
0000
1000
0001
1000
0000
0000
0000
0000
0000
0000
0000
0000
0000
,
1100
0000
0000
0000
0000
0000
0000
0000
0100
0000
0000
0000
0000
0000
0000
0000
0000
0000
0000
0000
0000
0000
0000
0000
0000
0000
0000
0000
0000
0000
0000
0000
0100
0000
0000
0000
0000
0000
0000
0100
0000
0000
0000
0000
0000
0000
0100
0000
0000
0000
0000
0000
0000
0100
0000
0000
0000
0000
0000
0000
0000
0000
0000
0000
,
0000
0000
0000
0000
0000
0000
0000
0000
0000
0000
0000
0000
0000
0000
0000
0000
0000
0000
0000
0000
0000
0000
0000
0000
0000
1000
0001
1000
0000
0000
0000
0000
0000
0000
0000
0000
0000
0000
0000
0000
0000
0000
0000
0000
0000
0000
0000
0000
,
1001
1000
0001
1000
0001
1000
0001
1000
0001
1000
0001
1000
,
0001
1000
0001
1000
0001
1000
0001
1000
0001
1000
0001
1000
,
0001
0001
1000
0001
1000
0001
1000
0001
1000
0001
1000
0001
1000
0001
1000
0001
1000
0001
1000
0001
1000
0001
1000
0001
,
1000
0000
0000
0000
0000
0000
0000
0000
0000
0000
0000
0000
1000
0000
0000
0000
0000
0000
0001
0000
0000
0000
0000
0000
1000
0000
0000
0000
0000
0000
0001
0000
0000
0000
0000
0000
1000
0000
0000
0000
0000
0000
0001
0000
0000
0000
0000
0000
1000
0000
0000
0000
0000
0000
0001
0000
0000
0000
0000
0000
1000
0000
0000
0000
0000
0000
0001
0000
0000
0000
0000
0000
1000
0000
0000
0000
0000
0000
0001
0000
0000
0000
0000
0000
1000
0000
0000
0000
0000
0000
0001
0000
0000
0000
0000
0000
1000
0000
0000
0000
0000
0000
0001
0000
0000
0000
0000
0000
1000
0000
0000
0000
1000
0000
0000
0000
0001
0000
0000
0000
1000
0000
0000
0000
0001
0000
0000
0000
1000
0000
0000
0000
0001
0000
0000
0000
1000
0000
0000
0000
0001
0000
0000
0000
1000
0000
0000
0000
0001
0000
0000
0000
1000
0000
0000
0000
0001
0000
0000
0000
1000
0000
0000
0000
0001
0000
0000
0000
1000
0000
0000
0000
0001
0000
0000
0000
1000
0000
0000
0000
0001
0000
0000
0000
1000
0000
0001
0000
0000
0000
0000
0000
,
2002
0000
0000
0000
,
0000
0000
0010
0100
,
0020
3003
0000
0000
,
0000
0101
1100
1031
,
1000
0100
0010
1000
0100
0001
0010
0100
,
0001
2000
3100
0010
0001
1000
0100
1000
,
0010
0100
0101
0100
0010
1000
0100
0001
,
0010
0100
0010
2000
0000
3100
0100
0001
,
0010
0100
1000
0100
1000
0100
0010
0100
,
1000
0100
0010
0001
0100
0100
0001
0010
,
0001
0100
0001
1000
0001
0010
0200
0010
,
0010
0010
0010
0010
0010
0010
0010
0010
,
0310
0000
0000
1000
0100
0010
0001
0010
0100
1000
0100
0010
,
0001
0010
0100
1000
0100
0010
0001
0010
0100
1000
0100
0010
,
0001
0010
0100
1000
0100
0010
0001
0010
0100
1000
0010
0100
,
0010
0000
0000
0000
0100
0000
0000
0000
0010
0000
0000
0000
0100
0000
0000
0000
0010
0000
0000
0000
0100
0000
0000
0000
0010
0000
0000
0000
0100
0000
0000
0000
0010
0000
0000
0000
0100
0000
0000
0000
0000
0000
0010
0000
0000
0100
0000
0000
,
0010
1000
0100
0010
0001
0010
0100
1000
0100
0010
0001
0010
0100
1000
0100
0010
,
0001
0010
0100
1000
0000
0100
1000
0100
0001
0010
0001
0100
0010
0100
1000
0010
,
0001
0100
0010
1000
0100
0010
0001
0100
0010
1000
1001
0010
0201
1000
0310
1000
,
0010
0100
0001
0010
0010
0010
1000
0100
1000
0100
0001
0100
0010
2200
0000
0000
,
0010
0010
0010
0010
,
0010
0010
3310
0220
,
1000
0001
1000
0001
,
1000
0001
1000
0331
,
2012
0010
0010
01M0
,
0010
0100
0M10
0100
,
3103
2112
0M10
0110
,
0010
0M00
0000
0000
0010
0000
0100
0000
0010
0000
0000
0000
0010
0000
0M00
0000
,
3013
0000
1000
0000
0100
0000
0010
0000
M100
0000
0001
0000
0010
0000
1000
0000
0100
0000
1000
00M0
0100
0000
1000
0000
0010
0000
0100
0000
0001
M000
0010
0000
,
0100
0000
1000
0000
0100
000M
0010
0000
0100
0000
1000
0000
0001
0000
0010
0000
0100
0000
1000
000M
0100
0000
0011
0000
0100
0000
1000
0000
0100
0000
0010
0000
,
0100
1000
0100
0010
0001
0010
0001
0010
0001
0010
0100
1020
0031
0001
0100
1000
,
0010
0100
0001
0010
0100
1000
0100
0010
0001
1000
0100
1000
0010
0001
0010
0100
,
1000
0110
0100
0100
0100
0001
0010
1100
0100
0100
0010
1000
0001
0010
0100
0010
,
0100
1000
0001
0010
0200
1300
0010
0100
0001
1000
0100
1000
0010
0100
0001
0010
,
0001
0100
0010
0100
1000
0010
0001
0100
0010
1000
0100
1000
0100
1000
0010
0100
,
0001
0010
0100
1000
0100
1000
0010
0001
0022
0133
0010
1000
0100
1000
0001
0010
,
0100
0010
0001
1000
0100
0010
0100
1000
0100
0010
0001
0100
1000
0100
0010
0000
,
0010
0100
1000
0010
0001
0100
0010
1000
0100
0010
0001
0010
0100
1000
0100
0010
,
0001
0010
0100
1000
0100
0001
0010
0100
0010
1000
0100
1000
0010
0001
0100
0010
,
1000
0100
0010
0100
1001
0010
0001
0100
1000
0010
0100
0001
0010
0100
0010
0100
,
0010
1000
0100
0010
0001
0010
0100
1000
0100
0010
0001
0010
0100
1000
0100
0010
,
0100
1000
0100
0010
0100
0010
0001
0100
1000
0100
0010
0100
0001
0100
1000
0100
,
0001
0010
0100
1000
0100
0020
0130
1000
0100
0010
0001
0010
0100
1000
0100
0010
,
0001
0010
0100
1000
0100
0010
0001
0010
0100
1000
0100
0010
0001
0010
0001
0010
,
0200
0320
0230
0000
0000
0000
0300
0000
0000
0000
0000
0000
0000
0000
0000
0000
;
